the walking dead s09e03 SURVIVOR Blindspot etmovies incredibles 2 lucifer porn High Castle s03e07 dtone NASCAR 9-1-1 s02e04 evo 1080p YIFY Star Trek Discovery star trek discovery español NCIS It NFL queen of the south fgt hindi season complete Manifest S01E05 ettv BBC great british bake off s09e09 Scorpion empire 0 ethd doctor who Lethal Weapon Lia M english vocabulary game of thrones arrow 2018 ITA ETRG manifest 2160p girlsdoporn the flash Supergirl s04e02 walking dead Arrow s07e02 windows 10 legends of tomorrow mr robot en español better call saul venom lopez nussa american horror story Legends of tomorrow s04e01 the big bang theory ddr Greys anatomy 1080p 2018 supernatural big bang theory español south park arrow español big bang theory wwe the good doctor Supergirl daredevil vikings etrg shameless The Walking Dead Mile 22 
Warning! Do not Download Without a VPN!
Your IP Address is .   Location is
Download and surf securely, stream unlimited and protect your personal data!
We strongly recommend using SpyOFF VPN!
Become Anonymous with SpyOFF
ETTV Recommended TV Shows
The.Flash.2014.S05E03.HDTV.x264-SVA[ettv] torrent
Black.Lightning.S02E03.HDTV.x264-SVA[ettv] torrent
The.Purge.S01E08.WEB.x264-TBS[ettv] torrent
Mayans.M.C.S01E08.WEBRip.x264-TBS[ettv] torrent

ETTV Recommended Xvid
Mile.22.2018.HDRip.XviD.AC3-EVO[EtMovies] torrent
The.Scorpion.King.Book.of.Souls.2018.HDRip.XViD-ETRG torrent
BlacKkKlansman.2018.HDRip.XViD.AC3-ETRG torrent
A.Happening.of.Monumental.Proportions.2018.HDRip.XViD-ETRG torrent

ETTV Recommended HD
Incredibles.2.2018.1080p.WEB-DL.DD5.1.H264-CMRG[EtHD] torrent
BlacKkKlansman.2018.1080p.WEB-DL.DD5.1.H264-CMRG[EtHD] torrent
Scorpion.King.The.Book.of.Souls.2018.1080p.WEB-DL.H264.AC3-EVO[EtHD] torrent
Mile.22.2018.1080p.HDRip.X264.AC3-EVO[EtHD] torrent

ETTV Recommended UHD
Constantine.City.of.Demons.2018.2160p.BluRay.x265.10bit.HDR.DTS-HD.MA.5.1-SWTYBLZ[EtHD] torrent
Your.Name.2016.2160p.UHD.BluRay.x265-VALiS[EtHD] torrent
Peter.Rabbit.2018.PLDUB.DUAL.2160p.UHD.BluRay.x265-FLAME[EtHD] torrent
Death.Wish.2018 BluRay 2160p DTS MA5 1 x265 10bit-CHD[EtHD] torrent

ETTV Recommended Cam
Bad Times at the El Royale 2018.HDCAM.XViD.AC3-ETRG torrent
Goosebumps 2 Haunted Halloween 2018 HDTS.x264.AC3-ETRG torrent
Halloween 2018.HDCAM.XViD.AC3-ETRG torrent
Night School 2018 HDTS XViD AC3-ETRG torrent

ETTV Recommended Foreign
The Avengers Trilogy (2012-2018) 1080p BluRay x264 Dual Audio [Hindi - English] DD5.1 - ESUB ~ Ranvijay torrent
Naa.Bangaaru.Talli.2013.1080p.NF.WebDL.AVC.DDP.5.1-DTOne torrent
Insidious The Last Key (2017) 1080p BluRay x264 Dual Audio [Hindi DD5.1 640 Kbps - English DD5.1] - MSUBS ~ Ranvijay torrent
Chotay Shah 2016 Hindi Untouched WebDL 1080p x264 - mkvCinemas torrent

Social


Download Torrent "American Horror Story (2011) Season 3 S03 + Extras (1080p BluRay x265 HEVC ..."

IMDB Details
Description:

N/A

Genre:

N/A

Download Torrent (Magnet)
Download Torrent (File)
Seeds: 154
Leechers: 276
Completed: 1,121 
Last Checked: 24-09-2018 08:30:27


Loading...
Details
Title:American Horror Story (2011) Season 3 S03 + Extras (1080p BluRay x265 HEVC ...
Description:


Encode Screenshots (Click for full quality)




Media Information
General
Format                                   : Matroska
Format version                           : Version 4 / Version 2
File size                                : 1.74 GiB
Duration                                 : 48 min 40 s
Overall bit rate                         : 5 107 kb/s
Movie name                               : American Horror Story Season 3: Coven, Disc 1
Encoded date                             : UTC 2018-09-18 14:44:25
Writing application                      : mkvmerge v26.0.0 ('In The Game') 64-bit
Writing library                          : libebml v1.3.6 + libmatroska v1.4.9

Video
ID                                       : 1
Format                                   : HEVC
Format/Info                              : High Efficiency Video Coding
Format profile                           : Main [email protected]@Main
Codec ID                                 : V_MPEGH/ISO/HEVC
Duration                                 : 48 min 39 s
Bit rate                                 : 4 391 kb/s
Width                                    : 1 920 pixels
Height                                   : 1 080 pixels
Display aspect ratio                     : 16:9
Frame rate mode                          : Constant
Frame rate                               : 23.976 (24000/1001) FPS
Color space                              : YUV
Chroma subsampling                       : 4:2:0
Bit depth                                : 10 bits
Bits/(Pixel*Frame)                       : 0.088
Stream size                              : 1.49 GiB (86%)
Writing library                          : x265 2.8+66-88ee12651e30:[Windows][GCC 8.2.1][64 bit] 10bit
Encoding settings                        : cpuid=1111039 / frame-threads=3 / numa-pools=12 / wpp / no-pmode / no-pme / no-psnr / no-ssim / log-level=2 / input-csp=1 / input-res=1920x1080 / interlace=0 / total-frames=70009 / level-idc=0 / high-tier=1 / uhd-bd=0 / ref=4 / no-allow-non-conformance / no-repeat-headers / annexb / no-aud / no-hrd / info / hash=0 / no-temporal-layers / open-gop / min-keyint=23 / keyint=250 / gop-lookahead=0 / bframes=8 / b-adapt=2 / b-pyramid / bframe-bias=0 / rc-lookahead=80 / lookahead-slices=4 / scenecut=40 / radl=0 / no-intra-refresh / ctu=64 / min-cu-size=8 / no-rect / no-amp / max-tu-size=32 / tu-inter-depth=1 / tu-intra-depth=1 / limit-tu=0 / rdoq-level=2 / dynamic-rd=0.00 / no-ssim-rd / signhide / no-tskip / nr-intra=0 / nr-inter=0 / no-constrained-intra / strong-intra-smoothing / max-merge=3 / limit-refs=3 / limit-modes / me=3 / subme=5 / merange=57 / temporal-mvp / weightp / weightb / no-analyze-src-pics / deblock=-1:-1 / sao / no-sao-non-deblock / rd=4 / no-early-skip / rskip / no-fast-intra / no-tskip-fast / no-cu-lossless / no-b-intra / no-splitrd-skip / rdpenalty=0 / psy-rd=1.60 / psy-rdoq=2.00 / no-rd-refine / no-lossless / cbqpoffs=0 / crqpoffs=0 / rc=crf / crf=20.5 / qcomp=0.60 / qpstep=4 / stats-write=0 / stats-read=0 / ipratio=1.40 / pbratio=1.30 / aq-mode=3 / aq-strength=1.00 / cutree / zone-count=0 / no-strict-cbr / qg-size=32 / no-rc-grain / qpmax=69 / qpmin=0 / no-const-vbv / sar=0 / overscan=0 / videoformat=5 / range=0 / colorprim=2 / transfer=2 / colormatrix=2 / chromaloc=0 / display-window=0 / max-cll=0,0 / min-luma=0 / max-luma=1023 / log2-max-poc-lsb=8 / vui-timing-info / vui-hrd-info / slices=1 / no-opt-qp-pps / no-opt-ref-list-length-pps / no-multi-pass-opt-rps / scenecut-bias=0.00 / no-opt-cu-delta-qp / aq-motion / no-hdr / no-hdr-opt / no-dhdr10-opt / no-idr-recovery-sei / analysis-reuse-level=5 / scale-factor=0 / refine-intra=0 / refine-inter=0 / refine-mv=0 / no-limit-sao / ctu-info=0 / no-lowpass-dct / refine-mv-type=0 / copy-pic=1 / max-ausize-factor=1.0 / no-dynamic-refine / no-single-sei
Default                                  : Yes
Forced                                   : No

Audio #1
ID                                       : 2
Format                                   : AAC
Format/Info                              : Advanced Audio Codec
Format profile                           : LC
Codec ID                                 : A_AAC
Duration                                 : 48 min 39 s
Bit rate                                 : 460 kb/s
Channel(s)                               : 6 channels
Channel positions                        : Front: L C R, Side: L R, LFE
Sampling rate                            : 48.0 kHz
Frame rate                               : 46.875 FPS (1024 spf)
Compression mode                         : Lossy
Delay relative to video                  : 20 ms
Stream size                              : 160 MiB (9%)
Language                                 : English
Default                                  : No
Forced                                   : No

Audio #2
ID                                       : 3
Format                                   : AAC
Format/Info                              : Advanced Audio Codec
Format profile                           : HE-AAC / LC
Codec ID                                 : A_AAC
Duration                                 : 48 min 39 s
Bit rate                                 : 192 kb/s
Channel(s)                               : 6 channels
Channel positions                        : Front: L C R, Side: L R, LFE
Sampling rate                            : 48.0 kHz / 24.0 kHz
Frame rate                               : 23.438 FPS (1024 spf)
Compression mode                         : Lossy
Delay relative to video                  : 40 ms
Stream size                              : 66.8 MiB (4%)
Language                                 : German
Default                                  : No
Forced                                   : No

Subtitle #1
ID                                       : 4
Format                                   : PGS
Muxing mode                              : zlib
Codec ID                                 : S_HDMV/PGS
Codec ID/Info                            : Picture based subtitle format used on BDs/HD-DVDs
Duration                                 : 47 min 38 s
Bit rate                                 : 37.3 kb/s
Count of elements                        : 1258
Stream size                              : 12.7 MiB (1%)
Language                                 : English
Default                                  : No
Forced                                   : No

Subtitle #2
ID                                       : 5
Format                                   : PGS
Muxing mode                              : zlib
Codec ID                                 : S_HDMV/PGS
Codec ID/Info                            : Picture based subtitle format used on BDs/HD-DVDs
Duration                                 : 48 min 24 s
Bit rate                                 : 32.5 kb/s
Count of elements                        : 1104
Stream size                              : 11.2 MiB (1%)
Language                                 : French
Default                                  : No
Forced                                   : No

Subtitle #3
ID                                       : 6
Format                                   : PGS
Muxing mode                              : zlib
Codec ID                                 : S_HDMV/PGS
Codec ID/Info                            : Picture based subtitle format used on BDs/HD-DVDs
Duration                                 : 48 min 24 s
Bit rate                                 : 34.6 kb/s
Count of elements                        : 1110
Stream size                              : 12.0 MiB (1%)
Language                                 : German
Default                                  : No
Forced                                   : No

Subtitle #4
ID                                       : 7
Format                                   : PGS
Muxing mode                              : zlib
Codec ID                                 : S_HDMV/PGS
Codec ID/Info                            : Picture based subtitle format used on BDs/HD-DVDs
Duration                                 : 48 min 24 s
Bit rate                                 : 35.0 kb/s
Count of elements                        : 1116
Stream size                              : 12.1 MiB (1%)
Language                                 : Spanish
Default                                  : No
Forced                                   : No

Menu
00:00:00.000                             : en:Chapter 01
00:05:40.506                             : en:Chapter 02
00:09:58.931                             : en:Chapter 03
00:12:39.842                             : en:Chapter 04
00:15:53.494                             : en:Chapter 05
00:21:59.401                             : en:Chapter 06
00:24:37.225                             : en:Chapter 07
00:28:23.868                             : en:Chapter 08
00:32:30.573                             : en:Chapter 09
00:36:17.008                             : en:Chapter 10
00:38:54.040                             : en:Chapter 11
00:43:30.399                             : en:Chapter 12

Source Information
Release : Untouched Bluray



Note from QxR:
Whilst we are happy for our releases to be re-posted on a platform we aren't on, please do so in an 'as-is' format. We ask that you do not create a new torrent, include all descriptions you see above including the QxR logo, tags, notes and screenshots. If you'd like to become a permanent poster on a website we don't post to, feel free to get in contact with a QxR member.
Category:TV > HEVC/x265
Lang:English  English
Total Size:20.64 GB
Info Hash:6c1a28ecb2d2d6ee088e14abc4afc27fe8b57998
Added By:QxR
Date Added:24-09-2018 08:30:23

Files

File List: 
 File Size
American Horror Story (2011) - S03E01 - Bitchcraft (1080p BluRay x265 RZeroX).mkv1.74 GB
American Horror Story (2011) - S03E02 - Boy Parts (1080p BluRay x265 RZeroX).mkv1.47 GB
American Horror Story (2011) - S03E03 - The Replacements (1080p BluRay x265 RZeroX).mkv1.77 GB
American Horror Story (2011) - S03E04 - Fearful Pranks Ensue (1080p BluRay x265 RZeroX).mkv1.88 GB
American Horror Story (2011) - S03E05 - Burn, Witch. Burn! (1080p BluRay x265 RZeroX).mkv1.43 GB
American Horror Story (2011) - S03E06 - The Axeman Cometh (1080p BluRay x265 RZeroX).mkv1.39 GB
American Horror Story (2011) - S03E07 - The Dead (1080p BluRay x265 RZeroX).mkv1.65 GB
American Horror Story (2011) - S03E08 - The Sacred Taking (1080p BluRay x265 RZeroX).mkv1.28 GB
American Horror Story (2011) - S03E09 - Head (1080p BluRay x265 RZeroX).mkv1.29 GB
American Horror Story (2011) - S03E10 - The Magical Delights of Stevie Nicks (1080p BluRay x265 RZeroX).mkv1.24 GB
American Horror Story (2011) - S03E11 - Protect the Coven (1080p BluRay x265 RZeroX).mkv1.37 GB
American Horror Story (2011) - S03E12 - Go to Hell (1080p BluRay x265 RZeroX).mkv1.54 GB
American Horror Story (2011) - S03E13 - The Seven Wonders (1080p BluRay x265 RZeroX).mkv1.50 GB
Featurettes/Enter the Coven - Featurette.mkv372 MB
Featurettes/Meet Miss Nola - Featurette.mkv420 MB
Featurettes/Zombie Halloween - Featurette.mkv319 MB



Loading...
Comments

There are currently no comments. Be the first one to write something !

Disclaimer: None of the files shown here are actually hosted or transmitted by this server. The links are provided solely by this site's users. The site moderation is also a service provided by the site's users. The administrator of this site (ettv.tv) cannot be held responsible for what its users post, or any other actions of its users. You may not use this site to distribute or download any material when you do not have the legal rights to do so. It is your own responsibility to adhere to these terms.

Sitemap